Ver Mensaje Individual
  #1 (permalink)  
Antiguo 06/09/2004, 02:17
valero28
 
Fecha de Ingreso: septiembre-2004
Mensajes: 5
Antigüedad: 14 años, 3 meses
Puntos: 0
Error .cue con Nero

Hola! He realizado un montaje con el Memories on Tv con fotos y videos, pero no puedo grabar la imagen que me queda con el Nero.
A la hora de grabar a un cd un archivo .cue con el Nero, me da un error que dice lo siguiente:

"C: \Documents and settings\x\escritorio\despedida de pepo y cris.cue.
Linea 1"

Y al abrir el .cue con el bloc de notas, me aprece esto:

FILE "despedida de pepo y cris.bin" BINARY
TRACK 01 MODE2/2352
FLAGS DCP
INDEX 01 00:00:00
TRACK 02 MODE2/2352
FLAGS DCP
INDEX 00 06:49:14
INDEX 01 06:51:14
TRACK 03 MODE2/2352
FLAGS DCP
INDEX 00 07:03:23
INDEX 01 07:05:23

La ruta del bin y del cue coinciden.
¿Alguien sabría cuál es el problema?
Es la primera vez que no puedo grabar un .cue del Memories on Tv con el Nero. ¿Podría ser porq que hay fotos y videos juntos?
Saludos.
Valero-.