Foros del Web » Soporte técnico » Audio y vídeo »

ayuda con FFMPEG

Estas en el tema de ayuda con FFMPEG en el foro de Audio y vídeo en Foros del Web. Saludos a toda le gente del foro, tengo unas grabaciones la primera de nombre"vid_orig.avi" que hice con mi cámara fotográfica y el video pesa aprox ...
  #1 (permalink)  
Antiguo 28/05/2009, 01:55
 
Fecha de Ingreso: noviembre-2003
Mensajes: 126
Antigüedad: 14 años
Puntos: 1
ayuda con FFMPEG

Saludos a toda le gente del foro, tengo unas grabaciones la primera de nombre"vid_orig.avi" que hice con mi cámara fotográfica y el video pesa aprox 5MB y cuando lo paso por el programa "cowon video converter" el peso baja casi a la mitad ; también he hecho un video con unas grabaciones de pantalla con "cam studio" y el video de nombre "sample.avi" pesaba 144MB y despues de pasarlo por el "cowon video converter" el video terminó pesando 20MB.En ambos casos el video resultante era bueno, claro solo es para compartir los videos por internet a algunos conocidos. El detalle es que me gustaria hacerlo con FFMPEG ya que puedo utilizarlo en linux. estos son los datos que me da el ffmpeg de cada video:

VIDEO1 ANTES DE COWON VIDEO CONVERTER:
Seems stream 0 codec frame rate differs from container frame rate: 200.00 (200/1) -> 52.50 (105/2)
Input #0, avi, from 'sample.avi':
Duration: 00:17:23.48, start: 0.000000, bitrate: 1163 kb/s
Stream #0.0: Video: cinepak, yuv420p, 322x249, 52.50 tbr, 200 tbn, 200 tbc
At least one output file must be specified

VIDEO1 DESPUES DE COWON VIDEO CONVERTER:
Input #0, avi, from 'sample_mod.avi':
Duration: 00:17:23.46, start: 0.000000, bitrate: 163 kb/s
Stream #0.0: Video: mpeg4, yuv420p, 320x240 [PAR 1:1 DAR 4:3], 30 tbr, 30 tbn, 30 tbc
At least one output file must be specified

VIDEO2 ANTES DE COWON VIDEO CONVERTER:
Input #0, avi, from 'vid_orig.avi':
Duration: 00:00:45.66, start: 0.000000, bitrate: 654 kb/s
Stream #0.0: Video: mjpeg, yuvj422p, 160x120, 15 tbr, 15 tbn, 15 tbc
Stream #0.1: Audio: pcm_u8, 8000 Hz, mono, s16, 64 kb/s
At least one output file must be specified

VIDEO2 DESPUES DE COWON VIDEO CONVERTER:
Input #0, avi, from 'vid_mod.avi':
Duration: 00:00:45.60, start: 0.000000, bitrate: 266 kb/s
Stream #0.0: Video: mpeg4, yuv420p, 160x120 [PAR 1:1 DAR 4:3], 15 tbr, 15 tbn, 15 tbc
Stream #0.1: Audio: mp3, 44100 Hz, stereo, s16, 128 kb/s
At least one output file must be specified

Espero me ayuden y pueda conseguir el mism resultado con FFMPEG.

Gracias.

David
Atención: Estás leyendo un tema que no tiene actividad desde hace más de 6 MESES, te recomendamos abrir un Nuevo tema en lugar de responder al actual.
Respuesta




La zona horaria es GMT -6. Ahora son las 01:41.