Foros del Web » Soporte técnico » Audio y vídeo »

Dudas con mkv

Estas en el tema de Dudas con mkv en el foro de Audio y vídeo en Foros del Web. Hola, tengo una tele samsung de las nuevas, que leen mkv. Tengo varioas archivos en mkv y los lee todos, pero hay uno que no ...
  #1 (permalink)  
Antiguo 21/01/2010, 10:30
 
Fecha de Ingreso: abril-2003
Mensajes: 11
Antigüedad: 14 años, 8 meses
Puntos: 0
Dudas con mkv

Hola, tengo una tele samsung de las nuevas, que leen mkv. Tengo varioas archivos en mkv y los lee todos, pero hay uno que no lo reconoce, pero en el pc se ve bien. Probé a recodificarlo, pero no consigo que se vea. Os envío las característas de uno y otro archivo, a ver si veis alguna diferencia notable, por la que no se pueda reproducir y que se pueda corregir.

ESTE SE VE:
General
Count : 260
Count of stream of this kind : 1
Kind of stream : General
Kind of stream : General
Stream identifier : 0
Count of video streams : 1
Count of audio streams : 2
Count of text streams : 1
Video_Format_List : AVC
Video_Format_WithHint_List : AVC
Codecs Video : AVC
Video_Language_List : English
Audio_Format_List : AC-3 / AC-3
Audio_Format_WithHint_List : AC-3 / AC-3
Audio codecs : AC3 / AC3
Audio_Language_List : Spanish / English
Text_Format_List : UTF-8
Text_Format_WithHint_List : UTF-8
Text codecs : UTF-8
Text_Language_List : Spanish
Complete name : H:\taringa\Tierra, La Pelicula de Nuestro Planeta (1080p).mkv
Folder name : H:\taringa
File name : Tierra, La Pelicula de Nuestro Planeta (1080p)
File extension : mkv
Format : Matroska
Format : Matroska
Format/Url : http://packs.matroska.org/
Format/Extensions usually used : mkv mka mks
Codec : Matroska
Codec : Matroska
Codec/Url : http://packs.matroska.org/
Codec/Extensions usually used : mkv mka mks
File size : 8837393972
File size : 8.23 GiB
File size : 8 GiB
File size : 8.2 GiB
File size : 8.23 GiB
File size : 8.230 GiB
Duration : 5705320
Duration : 1h 35mn
Duration : 1h 35mn 5s 320ms
Duration : 1h 35mn
Duration : 01:35:05.320
Overall bit rate : 12391794
Overall bit rate : 12.4 Mbps
Stream size : 175864340
Stream size : 168 MiB (2%)
Stream size : 168 MiB
Stream size : 168 MiB
Stream size : 168 MiB
Stream size : 167.7 MiB
Stream size : 168 MiB (2%)
Proportion of this stream : 0.01990
Title : Shadowlord
Movie name : Shadowlord
Encoded date : UTC 2008-03-23 08:59:15
File creation date : UTC 2009-05-21 13:36:39.968
File creation date (local) : 2009-05-21 14:36:39.968
File last modification date : UTC 2009-05-21 13:36:40.620
File last modification date (loc : 2009-05-21 14:36:40.620
Writing application : mkvmerge v2.1.0 ('Another Place To Fall') built on Aug 19 2007 13:40:07
Writing library : libebml v0.7.7 + libmatroska v0.8.1
Writing library : libebml v0.7.7 + libmatroska v0.8.1

Video
Count : 149
Count of stream of this kind : 1
Kind of stream : Video
Kind of stream : Video
Stream identifier : 0
ID : 1
ID : 1
UniqueID : 2063165596
Format : AVC
Format/Info : Advanced Video Codec
Format/Url : http://developers.videolan.org/x264.html
Format profile : [email protected]
Format settings : CABAC / 4 Ref Frames
Format settings, CABAC : Yes
Format settings, CABAC : Yes
Format settings, ReFrames : 4
Format settings, ReFrames : 4 frames
InternetMediaType : video/H264
Muxing mode : Container [email protected]
Codec ID : V_MPEG4/ISO/AVC
Codec ID/Url : http://ffdshow-tryout.sourceforge.net/
Codec : V_MPEG4/ISO/AVC
Codec : AVC
Codec/Family : AVC
Codec/Info : Advanced Video Codec
Codec/Url : http://ffdshow-tryout.sourceforge.net/
Codec profile : [email protected]
Codec settings : CABAC / 4 Ref Frames
Codec settings, CABAC : Yes
Codec_Settings_RefFrames : 4
Duration : 5705320
Duration : 1h 35mn
Duration : 1h 35mn 5s 320ms
Duration : 1h 35mn
Duration : 01:35:05.320
Bit rate : 11249197
Bit rate : 11.2 Mbps
Nominal bit rate : 11023000
Nominal bit rate : 11.0 Mbps
Width : 1920
Width : 1 920 pixels
Height : 1080
Height : 1 080 pixels
Pixel aspect ratio : 1.000
Display aspect ratio : 1.778
Display aspect ratio : 16:9
Frame rate : 25.000
Frame rate : 25.000 fps
Original frame rate : 23.976
Original frame rate : 23.976 fps
Frame count : 142633
Resolution : 8
Resolution : 8 bits
Colorimetry : 4:2:0
Scan type : Progressive
Scan type : Progressive
Interlacement : PPF
Interlacement : Progressive
Bits/(Pixel*Frame) : 0.217
Delay : 0
Stream size : 8022533792
Stream size : 7.47 GiB (91%)
Stream size : 7 GiB
Stream size : 7.5 GiB
Stream size : 7.47 GiB
Stream size : 7.472 GiB
Stream size : 7.47 GiB (91%)
Proportion of this stream : 0.90779
Title : Tierra, la pelicula de nuestro planeta
Writing library : x264 - core 58 svn-745M
Writing library : x264 core 58 svn-745M
Writing library/Name : x264
Writing library/Version : core 58 svn-745M
Encoding settings : cabac=1 / ref=4 / deblock=1:0:0 / analyse=0x3:0x113 / me=umh / subme=6 / me-prepass=0 / brdo=1 / mixed_ref=1 / me_range=16 / chroma_me=1 / trellis=1 / 8x8dct=1 / cqm=2 / deadzone=4,6 / chroma_qp_offset=0 / threads=6 / nr=0 / decimate=1 / mbaff=0 / bframes=5 / b_pyramid=1 / b_adapt=1 / b_bias=0 / direct=3 / wpredb=1 / bime=1 / keyint=250 / keyint_min=25 / scenecut=40(pre) / rc=2pass / bitrate=11023 / ratetol=1.0 / rceq='blurCplx^(1-qComp)' / qcomp=1.00 / qpmin=10 / qpmax=51 / qpstep=4 / cplxblur=20.0 / qblur=0.5 / ip_ratio=1.40 / pb_ratio=1.30 / aq=1:0.5:13.0
Language : en
Language : English
  #2 (permalink)  
Antiguo 21/01/2010, 10:31
 
Fecha de Ingreso: abril-2003
Mensajes: 11
Antigüedad: 14 años, 8 meses
Puntos: 0
Respuesta: Dudas con mkv

ESTE NO SE VE:

General
Count : 260
Count of stream of this kind : 1
Kind of stream : General
Kind of stream : General
Stream identifier : 0
Count of video streams : 1
Count of audio streams : 2
Count of text streams : 1
Video_Format_List : AVC
Video_Format_WithHint_List : AVC
Codecs Video : AVC
Audio_Format_List : AC-3 / AC-3
Audio_Format_WithHint_List : AC-3 / AC-3
Audio codecs : AC3 / AC3
Audio_Language_List : English / Spanish
Text_Format_List : ASS
Text_Format_WithHint_List : ASS
Text codecs : ASS
Text_Language_List : English
Complete name : H:\taringa\Planeta Tierra-2-RAIDER10.mkv
Folder name : H:\taringa
File name : Planeta Tierra-2-RAIDER10
File extension : mkv
Format : Matroska
Format : Matroska
Format/Url : http://packs.matroska.org/
Format/Extensions usually used : mkv mka mks
Codec : Matroska
Codec : Matroska
Codec/Url : http://packs.matroska.org/
Codec/Extensions usually used : mkv mka mks
File size : 4935219037
File size : 4.60 GiB
File size : 5 GiB
File size : 4.6 GiB
File size : 4.60 GiB
File size : 4.596 GiB
Duration : 2996800
Duration : 49mn 56s
Duration : 49mn 56s 800ms
Duration : 49mn 56s
Duration : 00:49:56.800
Overall bit rate : 13174637
Overall bit rate : 13.2 Mbps
Stream size : 102656873
Stream size : 97.9 MiB (2%)
Stream size : 98 MiB
Stream size : 98 MiB
Stream size : 97.9 MiB
Stream size : 97.90 MiB
Stream size : 97.9 MiB (2%)
Proportion of this stream : 0.02080
Encoded date : UTC 2008-07-18 19:46:15
File creation date : UTC 2010-01-19 11:01:34.995
File creation date (local) : 2010-01-19 12:01:34.995
File last modification date : UTC 2008-07-19 11:07:04.828
File last modification date (loc : 2008-07-19 12:07:04.828
Writing application : mkvmerge v2.0.0 ('After The Rain Has Fallen') built on Feb 7 2007 18:53:57
Writing library : libebml v0.7.7 + libmatroska v0.8.0
Writing library : libebml v0.7.7 + libmatroska v0.8.0

Video
Count : 149
Count of stream of this kind : 1
Kind of stream : Video
Kind of stream : Video
Stream identifier : 0
ID : 1
ID : 1
UniqueID : 1
Format : AVC
Format/Info : Advanced Video Codec
Format/Url : http://developers.videolan.org/x264.html
Format profile : [email protected]
Format settings : CABAC / 16 Ref Frames
Format settings, CABAC : Yes
Format settings, CABAC : Yes
Format settings, ReFrames : 16
Format settings, ReFrames : 16 frames
InternetMediaType : video/H264
Muxing mode : Container [email protected]
Codec ID : V_MPEG4/ISO/AVC
Codec ID/Url : http://ffdshow-tryout.sourceforge.net/
Codec : V_MPEG4/ISO/AVC
Codec : AVC
Codec/Family : AVC
Codec/Info : Advanced Video Codec
Codec/Url : http://ffdshow-tryout.sourceforge.net/
Codec profile : [email protected]
Codec settings : CABAC / 16 Ref Frames
Codec settings, CABAC : Yes
Codec_Settings_RefFrames : 16
Duration : 2993792
Duration : 49mn 53s
Duration : 49mn 53s 792ms
Duration : 49mn 53s
Duration : 00:49:53.792
Bit rate : 11824462
Bit rate : 11.8 Mbps
Nominal bit rate : 12087000
Nominal bit rate : 12.1 Mbps
Width : 1920
Width : 1 920 pixels
Height : 1080
Height : 1 080 pixels
Pixel aspect ratio : 1.000
Display aspect ratio : 1.778
Display aspect ratio : 16:9
Frame rate : 23.976
Frame rate : 23.976 fps
Frame count : 71851
Resolution : 8
Resolution : 8 bits
Colorimetry : 4:2:0
Scan type : Progressive
Scan type : Progressive
Interlacement : PPF
Interlacement : Progressive
Bits/(Pixel*Frame) : 0.238
Delay : 0
Stream size : 4424997364
Stream size : 4.12 GiB (90%)
Stream size : 4 GiB
Stream size : 4.1 GiB
Stream size : 4.12 GiB
Stream size : 4.121 GiB
Stream size : 4.12 GiB (90%)
Proportion of this stream : 0.89662
Title : Planeta Tierra-2-Hddvd-1080p-Dual-By-momos
Writing library : x264 - core 55 svn-655
Writing library : x264 core 55 svn-655
Writing library/Name : x264
Writing library/Version : core 55 svn-655
Encoding settings : cabac=1 / ref=16 / deblock=1:-2:-1 / analyse=0x3:0x133 / me=umh / subme=7 / brdo=1 / mixed_ref=1 / me_range=16 / chroma_me=1 / trellis=2 / 8x8dct=1 / cqm=0 / deadzone=21,11 / chroma_qp_offset=0 / threads=2 / nr=0 / decimate=0 / mbaff=0 / bframes=3 / b_pyramid=1 / b_adapt=1 / b_bias=0 / direct=3 / wpredb=1 / bime=1 / keyint=250 / keyint_min=25 / scenecut=40(pre) / rc=2pass / bitrate=12087 / ratetol=1.5 / rceq='blurCplx^(1-qComp)' / qcomp=0.60 / qpmin=10 / qpmax=51 / qpstep=4 / cplxblur=20.0 / qblur=0.5 / ip_ratio=1.40 / pb_ratio=1.30

Un saludo
  #3 (permalink)  
Antiguo 21/01/2010, 12:38
Avatar de ferny
Il capo della mafia
 
Fecha de Ingreso: febrero-2002
Ubicación: Al final del cable
Mensajes: 10.080
Antigüedad: 15 años, 9 meses
Puntos: 54
Respuesta: Dudas con mkv

¿Modelo de la tele?

A primera vista el que se ve tiene un profile [email protected] mientras que el que no se ve es [email protected] Mira si tu tele soporta ese perfil, ya que es "lo más de lo más"

http://es.wikipedia.org/wiki/H.264/MPEG-4_AVC
__________________
www.mundodivx.com || www.mundodivx.org

Pon tu mano en un horno caliente durante un minuto y te parecerá una hora.
Siéntate junto a una chica preciosa durante una hora y te parecerá un minuto.
Eso es la relatividad.
  #4 (permalink)  
Antiguo 27/08/2010, 01:13
 
Fecha de Ingreso: agosto-2010
Mensajes: 2
Antigüedad: 7 años, 3 meses
Puntos: 0
Respuesta: Dudas con mkv

[QUOTE=shojijo79;3248880]Hola, tengo una tele samsung de las nuevas, que leen mkv. Tengo varioas archivos en mkv y los lee todos, pero hay uno que no lo reconoce, pero en el pc se ve bien. Probé a recodificarlo, pero no consigo que se vea. Os envío las característas de uno y otro archivo, a ver si veis alguna diferencia notable, por la que no se pueda reproducir y que se pueda corregir.

ESTE SE VE:
General
Count : 260
Count of stream of this kind : 1
Kind of stream : General
Kind of stream : General
Stream identifier : 0
Count of video streams : 1
Count of audio streams : 2
Count of text streams : 1
Video_Format_List : AVC
Video_Format_WithHint_List : AVC
Codecs Video : AVC
Video_Language_List : English
Audio_Format_List : AC-3 / AC-3
Audio_Format_WithHint_List : AC-3 / AC-3
Audio codecs : AC3 / AC3
Audio_Language_List : Spanish / English
Text_Format_List : UTF-8
Text_Format_WithHint_List : UTF-8
Text codecs : UTF-8
Text_Language_List : Spanish
Complete name : H:\taringa\Tierra, La Pelicula de Nuestro Planeta (1080p).mkv
Folder name : H:\taringa
File name : Tierra, La Pelicula de Nuestro Planeta (1080p)
File extension : mkv
Format : Matroska
Format : Matroska
Format/Url : http://packs.matroska.org/
Format/Extensions usually used : mkv mka mks
Codec : Matroska
Codec : Matroska
Codec/Url : http://packs.matroska.org/
Codec/Extensions usually used : mkv mka mks
File size : 8837393972
File size : 8.23 GiB
File size : 8 GiB
File size : 8.2 GiB
File size : 8.23 GiB
File size : 8.230 GiB
Duration : 5705320
Duration : 1h 35mn
Duration : 1h 35mn 5s 320ms
Duration : 1h 35mn
Duration : 01:35:05.320
Overall bit rate : 12391794
Overall bit rate : 12.4 Mbps
Stream size : 175864340
Stream size : 168 MiB (2%)
Stream size : 168 MiB
Stream size : 168 MiB
Stream size : 168 MiB
Stream size : 167.7 MiB
Stream size : 168 MiB (2%)
Proportion of this stream : 0.01990
Title : Shadowlord
Movie name : Shadowlord
Encoded date : UTC 2008-03-23 08:59:15
File creation date : UTC 2009-05-21 13:36:39.968
File creation date (local) : 2009-05-21 14:36:39.968
File last modification date : UTC 2009-05-21 13:36:40.620
File last modification date (loc : 2009-05-21 14:36:40.620
Writing application : mkvmerge v2.1.0 ('Another Place To Fall') built on Aug 19 2007 13:40:07
Writing library : libebml v0.7.7 + libmatroska v0.8.1
Writing library : libebml v0.7.7 + libmatroska v0.8.1

Video
Count : 149
Count of stream of this kind : 1
Kind of stream : Video
Kind of stream : Video
Stream identifier : 0
ID : 1
ID : 1
UniqueID : 2063165596
Format : AVC
Format/Info : Advanced Video Codec
Format/Url : http://developers.videolan.org/x264.html
Format profile : [email protected]
Format settings : CABAC / 4 Ref Frames
Format settings, CABAC : Yes
Format settings, CABAC : Yes
Format settings, ReFrames : 4
Format settings, ReFrames : 4 frames
InternetMediaType : video/H264
Muxing mode : Container [email protected]
Codec ID : V_MPEG4/ISO/AVC
Codec ID/Url : http://ffdshow-tryout.sourceforge.net/
Codec : V_MPEG4/ISO/AVC
Codec : AVC
Codec/Family : AVC
Codec/Info : Advanced Video Codec
Codec/Url : http://ffdshow-tryout.sourceforge.net/
Codec profile : [email protected]
Codec settings : CABAC / 4 Ref Frames
Codec settings, CABAC : Yes
Codec_Settings_RefFrames : 4
Duration : 5705320
Duration : 1h 35mn
Duration : 1h 35mn 5s 320ms
Duration : 1h 35mn
Duration : 01:35:05.320
Bit rate : 11249197
Bit rate : 11.2 Mbps
Nominal bit rate : 11023000
Nominal bit rate : 11.0 Mbps
Width : 1920
Width : 1 920 pixels
Height : 1080
Height : 1 080 pixels
Pixel aspect ratio : 1.000
Display aspect ratio : 1.778
Display aspect ratio : 16:9
Frame rate : 25.000
Frame rate : 25.000 fps
Original frame rate : 23.976
Original frame rate : 23.976 fps
Frame count : 142633
Resolution : 8
Resolution : 8 bits
Colorimetry : 4:2:0
Scan type : Progressive
Scan type : Progressive
Interlacement : PPF
Interlacement : Progressive
Bits/(Pixel*Frame) :
  #5 (permalink)  
Antiguo 27/08/2010, 01:25
 
Fecha de Ingreso: agosto-2010
Mensajes: 2
Antigüedad: 7 años, 3 meses
Puntos: 0
Respuesta: Dudas con mkv

Yo tenía el mismo problema y lo solucione así:
descargué el freeware "Format factory"
seleccioné convertir video de "cualquier tipo a mkv"
en configurar destino eliges "calidad y tamaño de video altos" para que no disminuya la reslución y el audio para esta televisión deve ser "AC3" con el numero de canales que necesites ya sea 2 ó 6 si es para 5.1 ch ó si tu archivo original ya es AC3 en 5.1ch solo elige audio "copy"
le das aceptar y posteriormente iniciar y listo es un poco tardado pero vale la pena de cualquier manera el programa cuenta con un icono de ayuda en español para mas detalles suerte.

Etiquetas: edición-de-video-y-audio
Atención: Estás leyendo un tema que no tiene actividad desde hace más de 6 MESES, te recomendamos abrir un Nuevo tema en lugar de responder al actual.
Respuesta




La zona horaria es GMT -6. Ahora son las 20:14.