Foros del Web » Soporte técnico » Audio y vídeo »

Error .cue con Nero

Estas en el tema de Error .cue con Nero en el foro de Audio y vídeo en Foros del Web. Hola! He realizado un montaje con el Memories on Tv con fotos y videos, pero no puedo grabar la imagen que me queda con el ...
  #1 (permalink)  
Antiguo 06/09/2004, 02:17
 
Fecha de Ingreso: septiembre-2004
Mensajes: 5
Antigüedad: 13 años, 3 meses
Puntos: 0
Error .cue con Nero

Hola! He realizado un montaje con el Memories on Tv con fotos y videos, pero no puedo grabar la imagen que me queda con el Nero.
A la hora de grabar a un cd un archivo .cue con el Nero, me da un error que dice lo siguiente:

"C: \Documents and settings\x\escritorio\despedida de pepo y cris.cue.
Linea 1"

Y al abrir el .cue con el bloc de notas, me aprece esto:

FILE "despedida de pepo y cris.bin" BINARY
TRACK 01 MODE2/2352
FLAGS DCP
INDEX 01 00:00:00
TRACK 02 MODE2/2352
FLAGS DCP
INDEX 00 06:49:14
INDEX 01 06:51:14
TRACK 03 MODE2/2352
FLAGS DCP
INDEX 00 07:03:23
INDEX 01 07:05:23

La ruta del bin y del cue coinciden.
¿Alguien sabría cuál es el problema?
Es la primera vez que no puedo grabar un .cue del Memories on Tv con el Nero. ¿Podría ser porq que hay fotos y videos juntos?
Saludos.
Valero-.
  #2 (permalink)  
Antiguo 06/09/2004, 10:00
Avatar de AREA 51
Colaborador
 
Fecha de Ingreso: agosto-2004
Ubicación: León - España
Mensajes: 3.394
Antigüedad: 13 años, 4 meses
Puntos: 34
Puede que nero no te reconozca ese titulo espacios prueba a poner:

despedida_de_pepo_y_cris
Atención: Estás leyendo un tema que no tiene actividad desde hace más de 6 MESES, te recomendamos abrir un Nuevo tema en lugar de responder al actual.
Respuesta




La zona horaria es GMT -6. Ahora son las 02:55.