Foros del Web » Soporte técnico » Audio y vídeo »

ffmpeg de .wmv(wvc1) a .avi(divx)

Estas en el tema de ffmpeg de .wmv(wvc1) a .avi(divx) en el foro de Audio y vídeo en Foros del Web. Hola me gustaria que alguien me ayudara con un archivo de video que tiene extension .wmv y el codec de video es vc1(wvc1) queria pasarlo ...
  #1 (permalink)  
Antiguo 08/05/2010, 07:56
Avatar de A.H.H  
Fecha de Ingreso: mayo-2007
Ubicación: IRUN,(GUIPUZCOA) España
Mensajes: 178
Antigüedad: 10 años, 7 meses
Puntos: 4
ffmpeg de .wmv(wvc1) a .avi(divx)

Hola me gustaria que alguien me ayudara con un archivo de video que tiene extension .wmv y el codec de video es vc1(wvc1) queria pasarlo con ffmpeg en linea de comando a .avi (divx).y el audio a mp3.

la linea de comando que uso en un archivo .bat es la siguiente:

ffmpeg -i %1 -acodec libmp3lame -ar 44100 -ab 128k -ac 2 -vtag divx -qscale 1 -r 25 -aspect 4:3 "%userprofile%\Escritorio\prueba3.avi"

y como ya dije antes convierto sin problemas los wmv pero este video con el codec vc1 me da error.
¿alguien tiene alguna idea?, ¿tengo que usar otra linea de comando?
gracias por el tiempo prestado.

Los demas videos wmv los convierto sin problemas pero este video con codec vc1 me da problemas saltando en ffmpeg el siguiente error:

Cita:
FFmpeg version SVN-r22928, Copyright (c) 2000-2010 the FFmpeg developers
built on Apr 21 2010 06:05:10 with gcc 4.4.2
configuration: --enable-memalign-hack --cross-prefix=i686-mingw32- --cc=ccache-i686-mingw32-gcc --
arch=i686 --target-os=mingw32 --enable-runtime-cpudetect --enable-avisynth --enable-gpl --enable-ver
sion3 --enable-bzlib --enable-libgsm --enable-libfaad --enable-pthreads --enable-libvorbis --enable-
libtheora --enable-libspeex --enable-libmp3lame --enable-libopenjpeg --enable-libxvid --enable-libsc
hroedinger --enable-libx264 --enable-libopencore_amrwb --enable-libopencore_amrnb
libavutil 50.14. 0 / 50.14. 0
libavcodec 52.66. 0 / 52.66. 0
libavformat 52.61. 0 / 52.61. 0
libavdevice 52. 2. 0 / 52. 2. 0
libswscale 0.10. 0 / 0.10. 0
[asf @ 01afd490]max_analyze_duration reached

Seems stream 1 codec frame rate differs from container frame rate: 1000.00 (1000/1) -> 25.00 (25/1)
Input #0, asf, from 'C:\Documents and Settings\AITA\Escritorio\pruebas\Cinta de vÝdeo 2 2008_04_18_1
4_38_24.wmv':
Metadata:
WMFSDKVersion : 11.0.6000.6324
WMFSDKNeeded : 0.0.0.0000
IsVBR : 0
WM/DateTaken : 5710368
WM/WMRVEncodeTime: 1149260
WM/VideoWidth : 720
WM/VideoHeight : 480
WM/DateAcquired : 1844674
WM/ToolName : Importar vídeo de Windows ®
WM/ToolVersion : 6.0.6000.16386
VMG/VideoCamera : Microsoft DV Camera and VCR
title : Cinta de vídeo 2
author :
copyright :
comment :
Duration: 01:02:16.73, start: 5.000000, bitrate: 4159 kb/s
Stream #0.0(eng): Audio: wmav2, 48000 Hz, 2 channels, s16, 128 kb/s
Stream #0.1(eng): Video: vc1, yuv420p, 720x480, 4000 kb/s, 25 tbr, 1k tbn, 1k tbc
Output #0, avi, to 'C:\Documents and Settings\AITA\Escritorio\prueba3.avi':
Metadata:
ISFT : Lavf52.61.0
Stream #0.0(eng): Video: mpeg4, yuv420p, 720x480 [PAR 8:9 DAR 4:3], q=2-31, 200 kb/s, 25 tbn, 25
tbc
Stream #0.1(eng): Audio: libmp3lame, 44100 Hz, 2 channels, s16, 128 kb/s
Stream mapping:
Stream #0.1 -> #0.0
Stream #0.0 -> #0.1
Press [q] to stop encoding
[vc1 @ 01aff0a0]Interlaced WVC1 support is not implemented
Error while decoding stream #0.1
Error while decoding stream #0.1
Error while decoding stream #0.1
Error while decoding stream #0.1
Error while decoding stream #0.1
Error while decoding stream #0.1
Error while decoding stream #0.1

salu2
  #2 (permalink)  
Antiguo 08/05/2010, 13:44
Avatar de A.H.H  
Fecha de Ingreso: mayo-2007
Ubicación: IRUN,(GUIPUZCOA) España
Mensajes: 178
Antigüedad: 10 años, 7 meses
Puntos: 4
Respuesta: ffmpeg de .wmv(wvc1) a .avi(divx)

Caso solucionado!!!!!!!

Por si a alguien le interesa, cree un script de avisynth con el block de notas de windows.
con una linea igual a esta:


Cita:
DirectShowSource("C:\Cinta de vídeo 1 2008_04_18_12_53_43.wmv", fps=25, ConvertFPS=True) # ffmpeg
Y lo guarde con extension .avs, luego lo echo encima del archivo .bat que comente anteriormente y ZAS!! me lo convierte a avi(divx) sin problemas y por arte de magia desaparece el dichoso codec wvc1


salu2

Última edición por A.H.H; 09/05/2010 a las 03:56

Etiquetas: edición-de-video-y-audio, ffmpeg
Atención: Estás leyendo un tema que no tiene actividad desde hace más de 6 MESES, te recomendamos abrir un Nuevo tema en lugar de responder al actual.
Respuesta




La zona horaria es GMT -6. Ahora son las 22:20.